<?xml version="1.0" standalone="no"?>
<!DOCTYPE svg PUBLIC "-//W3C//DTD SVG 1.1//EN" "http://www.w3.org/Graphics/SVG/1.1/DTD/svg11.dtd">
<svg xmlns="http://www.w3.org/2000/svg">
<metadata>Copyright (C) 2024 by original authors @ fontello.com</metadata>
<defs>
<font id="sricons" horiz-adv-x="1000" >
<font-face font-family="sricons" font-weight="400" font-stretch="normal" units-per-em="1000" ascent="850" descent="-150" />
<missing-glyph horiz-adv-x="1000" />
<glyph glyph-name="amazonmusic" unicode="&#xe800;" d="M679 402c-6-4-16-8-29-8-19 0-37 3-55 8-4 1-8 2-10 2-3 0-4-2-4-6v-11c0-4 1-6 2-8 1-1 3-3 7-4 18-8 38-11 60-11 23 0 42 5 56 16 15 11 21 26 21 45 0 13-3 23-10 33-6 7-17 15-33 21l-32 12c-12 4-21 9-24 13-5 5-7 9-7 17 0 17 12 26 38 26 15 0 29-2 43-7 4-1 8-2 9-2 3 0 6 2 6 7v11c0 3-1 6-3 7-1 3-3 4-6 5-17 5-34 9-51 9-21 0-39-6-53-16-13-10-19-24-19-41 0-26 14-45 43-57l34-12c11-4 18-7 22-12s6-9 6-16c-1-9-4-16-11-21z m120 246c-4 4-11 7-19 7-7 0-13-3-17-7-5-4-7-10-7-17s2-13 7-16c4-4 10-7 17-7 8 0 14 3 18 7 5 4 7 10 7 16s-1 14-6 17z m-6-77h-24c-5 0-7-2-7-7v-187c0-5 2-7 7-7h24c5 0 7 2 7 7v187c0 4-2 7-7 7z m105-44c10 11 26 16 48 16 11 0 23-1 33-4 3-1 4-1 7-1 3 0 5 2 5 7v12c0 3-1 6-2 7-1 1-3 4-6 5-14 3-29 6-43 6-31 0-55-9-72-28-17-18-26-45-26-79s8-59 25-78c16-17 40-27 71-27 17 0 33 3 45 8 3 1 6 2 7 4 1 1 1 4 1 8v11c0 6-3 8-6 8-1 0-3 0-6-1-12-3-24-6-36-6-21 0-37 6-47 17-10 11-14 29-14 53v5c2 28 6 45 16 57z m-608-158h23c6 0 8 3 8 8v141c0 19-4 33-15 43-10 10-23 16-42 16-26 0-53-9-79-28-9 19-26 28-50 28s-50-9-74-26l-3 13c0 3-1 4-3 5-1 1-3 1-6 1h-17c-6 0-8-2-8-7v-187c0-6 3-7 8-7h23c6 0 8 2 8 7v152c19 11 38 17 58 17 11 0 19-3 23-10s8-15 8-29v-129c0-6 2-8 8-8h23c6 0 8 3 8 8v144c0 3 0 5 0 6 20 12 40 18 59 18 11 0 18-3 23-10 4-7 7-16 7-29v-129c2-5 4-8 10-8z m213 195v-150c-18-12-38-19-57-19-12 0-21 4-27 10-5 7-7 17-7 32v127c0 5-3 7-8 7h-23c-6 0-8-2-8-7v-140c0-19 4-35 15-45 10-10 24-15 43-15 26 0 52 9 77 27l2-13c0-4 1-5 4-6 1-1 3-1 6-1h17c6 0 7 2 7 8v185c0 6-2 7-7 7h-23c-8 0-11-3-11-7m430-450c58 50 74 152 62 167-6 7-33 13-66 13-37 0-79-7-112-30-10-7-7-16 3-14 35 4 113 13 128-5 13-18-16-92-29-124-4-10 4-13 14-7z m-47 106c-122-52-256-78-377-78-180 0-353 49-494 131-2 1-4 3-7 3-7 0-12-9-4-17 131-117 303-188 494-188 137 0 295 42 404 123 19 14 3 33-16 26z" horiz-adv-x="1000" />

<glyph glyph-name="apple-podcasts" unicode="&#xe801;" d="M778 850h-555c-123 0-223-100-223-222v-555c0-123 100-223 223-223h555c122 0 222 100 222 223v555c0 122-100 222-222 222z m-211-765c-10-69-15-87-28-98-19-17-45-21-69-12l-1 0c-29 11-36 25-48 110-14 99-17 160-9 179 11 26 41 41 82 41 41 0 71-15 82-41 8-19 5-80-9-179z m-216 183l18-21v-26c0-14-1-25-3-25-1 0-11 7-21 15l-2 1c-34 27-65 76-77 124-8 30-8 85 0 114 21 78 79 139 159 167 27 10 87 12 121 4 116-25 199-142 183-257-7-46-23-84-51-120-14-18-48-47-54-47-1 0-2 11-2 25v25l18 21c65 78 60 187-11 259-28 28-60 44-101 52-27 5-33 5-60 0-43-7-76-23-105-52-72-71-77-181-12-259z m109 80l-1 0c-30 13-46 39-46 73 0 31 17 57 46 73 19 10 52 10 71 0 20-11 36-30 43-52 19-66-50-124-113-94z m381-15c-15-88-63-167-135-221-25-19-87-52-97-52-4 0-4 3-2 19 3 24 6 29 20 36 22 9 60 36 83 59 41 41 70 92 84 148 9 34 8 110-2 146-30 112-122 199-234 223-33 6-92 6-125 0-114-24-208-115-237-231-7-31-7-107 0-139 19-76 69-146 133-188 11-7 23-14 35-19 14-6 17-11 19-36 2-15 2-19-2-19-2 0-19 7-37 16l-2 1c-103 50-169 136-193 250-6 30-7 100-1 127 15 72 43 129 91 179 69 73 157 111 255 111 98 0 186-38 253-108 51-53 80-109 94-183 5-24 5-91 0-119z" horiz-adv-x="1000" />

<glyph glyph-name="castbox" unicode="&#xe802;" d="M67 350v209c0 32 13 55 41 71l348 208c30 17 57 17 86 0l350-208c27-16 41-39 41-71l0-418c0-32-13-55-39-71l-352-208c-28-17-54-17-83 0l-351 208c-28 18-42 39-41 72l0 208z m522 3l0 95c0 19-11 30-26 32-19 1-33-11-33-30l0-62c0-15-10-21-22-18-10 2-13 10-13 19l0 83c0 12-3 22-14 28-22 13-47 0-47-27l0-67c0-12-6-18-15-18-11 0-17 6-19 18l0 24c0 12-8 22-19 26-20 8-40-6-40-28l0-59c0-11-7-17-18-17-9 0-17 4-17 15 0 3 0 6 0 10-1 15-15 28-29 26-16 0-30-12-30-26l0-94c0-16 14-27 30-27 15 0 28 11 29 27 0 3-1 8 0 11 3 4 8 12 13 14 4 1 12-2 15-5 4-3 5-11 5-15l0-93c0-22 24-36 44-26 11 6 15 15 15 28l0 123c0 19 7 28 19 28 13 0 17-7 17-26l0-55c0-19 13-31 30-31 19 0 30 12 31 33l0 42c0 12 7 20 18 20s17-8 17-20l0-48c0-18 14-30 29-30 18 0 30 12 30 31l0 89 0 0z m95-34l0 53c0 19-11 30-28 31-17 0-31-9-31-28l0-112c0-18 16-30 31-29 17 2 28 13 28 32l0 53 0 0z m35-14l0-14c0-16 12-28 28-28 17-2 30 9 31 25 2 10 2 21 0 32-1 16-15 27-31 27-16-2-27-13-28-28 0-5 0-10 0-14l0 0z" horiz-adv-x="1000" />

<glyph glyph-name="castro" unicode="&#xe803;" d="M500 850c-276 0-500-224-500-500s224-500 500-500c276 0 500 224 500 500s-224 500-500 500z m0-583a86 86 0 1 0 0 171 86 86 0 0 0 0-171z m208-202l-84 116a212 212 0 1 1-249 0l-84-117a355 355 0 0 0 208 644 355 355 0 0 0 355-356 355 355 0 0 0-146-287z" horiz-adv-x="1000" />

<glyph glyph-name="deezer" unicode="&#xe804;" d="M783 713h216v-126h-216v126z m0-175h216v-127h-216v127z m0-175h216v-127h-216v127z m-783-176h216v-126h-216v126z m261 0h216v-126h-216v126z m261 0h216v-126h-216v126z m261 0h216v-126h-216v126z m-261 176h216v-127h-216v127z m-261 0h216v-127h-216v127z m0 175h216v-127h-216v127z" horiz-adv-x="1000" />

<glyph glyph-name="google-podcast" unicode="&#xe805;" d="M125 384v-68c0-35-28-63-62-63s-63 28-63 63v68c0 35 28 63 63 63s62-28 62-63l0 0z m750-2c0 1 0 2 0 2 0 35 28 63 63 63 34 0 62-28 62-63 0 0 0-1 0-2l0 0v-68h0c-1-34-29-61-62-61s-62 27-63 61h0l0 68 0 0 0 0 0 0z m-534-202v-69c0-34-28-62-63-62-34 0-62 28-62 62v69c0 34 28 62 62 62 35 0 63-28 63-62l0 0 0 0z m0 409v-223h0c-1-34-28-61-63-61-34 0-61 27-62 61h0v223c0 34 28 62 62 62s63-28 63-62l0 0 0 0z m318-68c0-35 28-63 63-63s62 28 62 63v68c0 34-28 62-62 62-35 0-63-28-63-62v-68l0 0z m-221 198c0-34 28-62 62-62s63 28 63 62v69c0 34-28 62-63 62s-62-28-62-62v-69l0 0z m0-738c0 34 28 62 62 62s63-28 63-62v-69c0-34-28-62-63-62s-62 28-62 62v69l0 0z m221 352c0 35 28 63 63 63s62-28 62-63v-222c0-34-28-62-62-62-35 0-63 28-63 62v222l0 0z m-96 199v-364c0-34-28-62-63-62s-62 28-62 62v364c0 34 28 62 62 62s63-28 63-62l0 0z" horiz-adv-x="1000" />

<glyph glyph-name="iheartradio" unicode="&#xe806;" d="M728 725c-95 0-179-50-228-124-49 74-133 124-228 124-150 0-272-122-272-273 0-84 46-167 107-217 2-3 154-144 288-268v200c0 137 208 136 208 0v-201l274 259c66 54 123 132 123 228 0 150-121 272-272 272m-472-488c-4-4-9-6-14-6-5 0-9 1-13 5-81 72-122 147-122 224v1c0 66 40 140 93 174 8 5 20 2 25-6 6-9 3-21-5-26-43-27-76-89-76-142v-1c0-65 37-131 110-196 8-7 9-19 2-27m121 70c-3-6-10-9-16-9-3 0-7 0-10 2-54 31-92 92-92 151v1c0 57 32 108 82 135 9 5 20 1 25-8 5-9 2-21-8-26-38-20-61-59-61-101 0-47 29-95 73-119 9-5 12-17 7-26m124 49c-45 0-82 36-82 81s37 82 82 82c45 0 81-36 81-82 1-45-36-81-81-81m148-56c-3-1-6-2-9-2-7 0-13 3-17 10-5 9-2 20 8 26 43 24 73 72 73 118 0 43-24 82-61 102-10 5-13 16-8 25 4 10 16 13 25 8 50-26 81-78 82-134v-1c-1-60-38-121-93-152m245 160c0-77-42-152-123-225-3-3-8-4-12-4-6 0-11 2-14 6-8 7-7 19 1 26 73 65 110 131 110 196v1c0 53-33 115-75 142-9 6-12 17-6 26 5 9 17 11 26 6 53-33 93-108 93-174l0 0" horiz-adv-x="1000" />

<glyph glyph-name="overcast" unicode="&#xe807;" d="M500-150c-275-1-499 222-500 498v2c0 277 223 500 500 500s500-223 500-500c0-277-223-500-500-500z m0 198l38 37-38 144-37-144 37-37z m-48 2l-19-71 44 44-25 27z m96 0l-25-25 44-44-19 69z m35-129l-83 83-83-83c27-4 54-9 83-9s56 3 83 9z m-83 867c-242 0-437-196-437-438-1-186 117-352 293-413l94 349c-21 15-34 40-33 66 0 46 37 84 83 84s83-38 83-84c0-27-12-50-33-66l94-349c176 61 294 227 294 413 0 242-196 438-438 438z m285-655c-10-13-29-16-43-6-13 9-17 26-8 39 0 1 1 2 2 3 0 0 56 75 56 181s-56 181-56 181c-10 12-9 30 3 40 1 1 2 2 3 2 14 10 33 7 44-6 4-4 68-90 68-217s-64-212-69-217z m-152 82c-12 12-10 35 2 48 0 0 32 33 32 87s-32 86-32 88c-12 12-12 33-2 47 10 13 28 15 41 6 1-1 2-2 3-3 2-3 52-55 52-138s-50-135-52-137c-12-13-31-11-44 2z m-266 0c-13-13-31-15-44-2-2 4-52 54-52 137s50 133 52 138c13 12 33 12 44-3 12-12 10-35-2-47 0-2-32-34-32-88s32-87 32-87c12-13 14-34 2-48z m-109-88c-14-10-33-7-43 6-4 5-69 90-69 217s65 213 69 217c10 13 29 16 43 6 13-9 17-26 8-39 0-1-1-2-1-3 0 0-57-75-57-181s57-181 57-181c10-13 6-31-7-42z" horiz-adv-x="1000" />

<glyph glyph-name="pandora" unicode="&#xe808;" d="M891 495c-17 171-169 304-348 304h-435v-898h224c31 0 56 25 56 56v168h168c94 0 185 41 249 111 64 71 95 163 86 259l0 0z" horiz-adv-x="1000" />

<glyph glyph-name="playerfm" unicode="&#xe809;" d="M499 850c-5 0-10 0-14 0-14-1-33-3-47-5-137-19-255-88-333-190-20-25-37-52-51-81-3-5-5-10-8-15-3-8-7-16-10-25-5-11-9-22-12-33l-2-6c-15-47-22-95-22-144v-2c1-276 224-499 500-499 257 0 472 194 497 450l1 1c1 16 2 32 2 48v2c0 60-11 119-32 174-2 5-3 9-5 13-3 8-6 15-10 22-61 131-179 233-320 271-32 8-83 16-118 18-4 1-9 1-14 1z m97-120c7 0 16-2 28-7 74-25 157-89 202-156 31-47 56-102 56-125 0-15-15-28-30-28-15 0-30 13-34 28-5 22-34 77-56 106-38 50-97 94-155 115-41 16-51 34-32 56 6 8 12 11 21 11z m-162-58c11 0 20-3 29-7 55-28 52-107-5-129-70-27-106-55-129-102-48-97-8-212 89-259 71-34 153-22 209 30 26 25 41 45 53 79 18 47 38 64 75 64 46 0 79-39 69-84-19-89-94-178-184-220-50-23-77-29-140-29-62 0-89 6-137 28-131 59-211 201-195 342 16 130 105 239 230 280 13 5 25 7 36 7z m144-40c9 0 21-5 38-13 71-33 129-95 160-168 12-28 6-46-17-54-18-5-29 5-44 36-29 60-69 102-126 130-33 16-37 20-40 35-2 9 0 13 7 22 7 8 13 12 22 12z m-16-102c9 0 20-4 35-14 40-26 85-83 85-106 0-12-12-28-24-30-15-5-26 3-43 29-18 27-38 48-60 59-18 10-24 17-24 32-1 8 3 17 10 21 6 6 13 9 21 9z" horiz-adv-x="1000" />

<glyph glyph-name="pocketcasts" unicode="&#xe80a;" d="M500 850c-276 0-500-224-500-500s224-500 500-500 500 224 500 500-224 500-500 500z m155-505c0 83-67 151-150 151s-151-68-151-151c0-83 68-150 151-150l0-86c-131 0-236 106-236 236s105 237 236 237 236-106 236-237h-86z m145 0c0 163-132 296-295 296s-295-133-295-296 132-295 295-295v-98c-218 0-394 176-394 393h0c0 218 176 394 394 394s393-176 393-394h-98z" horiz-adv-x="1000" />

<glyph glyph-name="podcastaddict" unicode="&#xe80b;" d="M496 501l0 0 0-52h0c55 0 99-44 99-99 0 0 0 0 0 0h52c0 0 0 0 0 0 0 83-68 151-151 151z m274 340h-546c-121 0-220-99-220-220v-542c0-121 99-220 220-220h546c121 0 220 99 220 220v542c0 121-99 220-220 220z m-97-809v54c-51-34-112-54-178-54-34 0-67 5-98 15v190c27-23 61-37 99-37 74 0 135 52 148 122h-53c-12-41-50-71-95-71-54 0-98 44-99 98v0c0 1 0 1 0 1 0 45 30 83 71 95v53c-69-13-122-74-122-148 0-1 0-2 0-3v-182-96c-100 53-168 159-168 280 0 175 142 316 317 316 173 0 313-138 317-309l0-324h-139z m-177 557h0v-51h0c104 0 188-84 188-188 0 0 0 0 0 0h51c0 0 0 0 0 0 0 132-107 239-239 239z" horiz-adv-x="997" />

<glyph glyph-name="podcastindex" unicode="&#xe80c;" d="M264 321c-114 108-104 272 0 367 22 19 53 17 72-2 19-19 16-50-3-69-64-60-69-157 0-224 19-19 22-50 3-69s-53-22-72-3z m-35-73c23-15 31-46 9-69-9-15-24-19-38-19-9 0-19 4-31 9-100 74-164 202-169 336-5 138 60 252 169 336 22 14 55 14 72-10 14-19 14-55-10-69-86-64-129-152-129-257-2-98 48-203 127-257z m412 76c-20 19-20 50 2 69 69 67 64 164 0 224-19 19-22 50-2 69 19 19 50 21 71 2 105-95 114-262 0-367-21-19-52-19-71 3z m166 517c110-84 174-198 169-336 0-134-64-262-169-336-9-5-21-9-31-9-14 0-31 4-40 19-19 23-15 54 9 69 79 54 129 157 129 257 0 102-45 193-129 257-24 14-24 50-9 69 16 24 50 24 71 10z m-212-336c0 59-47 107-107 107s-107-48-107-107c0-38 19-72 50-91l-121-564h104l119 560c38 16 62 52 62 95z" horiz-adv-x="976" />

<glyph glyph-name="podchaser" unicode="&#xe80d;" d="M500 850c-276 0-500-224-500-500s224-500 500-500c276 0 500 224 500 500s-224 500-500 500z m0-930c-237 0-430 193-430 430s193 430 430 430 430-193 430-430-193-430-430-430z m0 740c-177 0-320-143-320-320v-277c48-54 110-95 180-119v108c42-21 90-32 140-32 177 0 320 143 320 320s-143 320-320 320z" horiz-adv-x="1000" />

<glyph glyph-name="rss-feed" unicode="&#xe80e;" d="M795 850h-590c-113 0-205-92-205-205v-590c0-113 92-205 205-205h590c113 0 205 92 205 205v590c-1 113-92 205-205 205z m-480-753c-37 0-68 31-68 67 0 38 31 68 67 68 38 0 68-30 68-68 0-36-30-66-67-67z m168 0c0 131-105 237-236 237v97h0c184 0 334-150 334-334h-98z m173 0c0 226-183 409-409 409v97c279 0 507-227 507-506h-98z" horiz-adv-x="1000" />

<glyph glyph-name="spotify" unicode="&#xe80f;" d="M500 850c-276 0-500-224-500-500 0-276 224-500 500-500 276 0 500 224 500 500 0 276-224 500-500 500l0 0z m229-721c-9-15-28-19-43-10-117 71-265 88-439 48-17-4-33 6-37 23-4 17 7 34 23 38 191 43 354 24 486-56 15-9 19-28 10-43z m62 136c-12-18-36-24-54-13-134 83-339 107-498 58-21-6-43 6-49 26-6 21 5 43 26 49 182 55 407 28 562-66 18-12 24-36 13-54v0z m5 142c-161 96-427 104-581 58-25-8-51 6-58 31-8 25 6 51 31 58 176 54 470 43 656-67 22-13 29-42 16-64-13-22-42-29-64-16h0z" horiz-adv-x="1000" />

<glyph glyph-name="stitcher" unicode="&#xe810;" d="M109 450h137v-248h-137z m645 13h137v-228h-137z m-160 51h137v-297h-137z m-160-43h136v-285h-136z m-162 24h136v-276h-136z" horiz-adv-x="1000" />

<glyph glyph-name="tunein" unicode="&#xe811;" d="M624 596c-14 0-14-15-14-15v-86h-595c-15 0-15-14-15-14v-310c0-14 15-14 15-14h609c16-1 16 14 16 14v86h345c15 0 15 15 15 15v309c0 15-15 15-15 15h-361l0 0z m94-101h70v-27h-22v-86h25v-27h-75v27h23v86h-20l-1 27 0 0 0 0z m93 0h33l30-86v86h28v-140h-31l-33 82v-82h-27v140l0 0 0 0z m-780-30h579v-279h-579v279l0 0z m75-70v-28h31v-111h27v111h30v28l-88 0 0 0z m108 0v-98c0 0 0-43 48-43s49 43 49 43v99h-28v-99c0 0 0-15-20-15s-22 15-22 15v99h-27v-1z m119 0v-139h27v78l27-78h36v139h-30v-78l-28 78h-32l0 0z m110 0v-139h83v28h-53v27h51v28h-51v28h51v27h-81v1z" horiz-adv-x="1000" />

<glyph glyph-name="Sonaar-symbol" unicode="&#xe812;" d="M501 397v445c-272 0-492-220-492-492s220-492 492-492v445c23-250 234-445 490-445v984c-256 0-466-195-490-445z" horiz-adv-x="1000" />

<glyph glyph-name="info" unicode="&#xe813;" d="M500 850c-276 0-500-224-500-500s224-500 500-500 500 224 500 500-224 500-500 500z m-85-667c24 75 68 164 76 186 12 33-9 48-72-8l-14 26c72 79 222 97 171-25-32-77-55-128-68-168-19-58 29-35 76 9 7-11 9-14 15-26-104-99-220-108-184 6z m198 340c-22-19-55-18-73 1-19 20-16 51 6 69 23 19 55 19 74 0 18-20 15-51-7-70z" horiz-adv-x="1000" />

<glyph glyph-name="15s" unicode="&#xe814;" d="M14 592h0c-1-26 27-47 52-39l184 52a45 45 0 0 1 17 81l-65 49a450 450 0 0 0 509-22 24 24 0 0 1 28 37 500 500 0 0 1-577 16l-78 59a45 45 0 0 1-49 3c-15-8-23-23-23-41 0 0 2-194 2-195z m770 52a472 472 0 0 0 69-108c10-23 22-57 27-81 8-30 53-19 46 11a524 524 0 0 1-45 120 540 540 0 0 1-85 115c-21 22-56-9-35-32z m155-273c-1 31-47 30-47-1 1-13 0-42-1-56a459 459 0 0 0-28-125c-19-49-49-100-84-139-19-24 17-54 37-30a589 589 0 0 1 43 57c55 86 86 191 80 294z m-223-380a464 464 0 0 0-153-77c-39-11-87-17-128-17-6 0-36 2-42 3-32 3-38-43-6-47a482 482 0 0 1 83-2c57 4 120 18 173 42 34 15 74 38 103 61 24 19-5 57-30 37z m-408-74a463 463 0 0 0-169 95 507 507 0 0 0-65 71c-7 11-23 36-30 47-15 27-56 3-40-24a583 583 0 0 1 53-78 518 518 0 0 1 138-114 534 534 0 0 1 97-42c29-10 45 35 16 45z m-28 580c-20-24-54-30-85-30v-43h82v-237h60v335h-44a53 53 0 0 0-13-25z m338-250c-19-27-69-28-92-7q-16 15-18 42h-55c-1-104 148-136 206-62 44 55 36 155-33 184-32 14-81 12-106-17l-1 1 17 86h133v48h-174l-36-183h55c11 33 55 36 82 25 42-20 44-82 22-117z" horiz-adv-x="940" />

<glyph glyph-name="30s" unicode="&#xe815;" d="M229 713a450 450 0 0 0 509 22l-66-49h0c-30-22-19-73 18-80l183-53h0c26-8 54 13 53 39h0c0 1 2 195 2 195 1 38-43 60-72 38h0c-126-95-35-52-206 2a501 501 0 0 1-308-3c-28-10-179-68-146-107a24 24 0 0 1 33-4z m-169-258a448 448 0 0 0 57 138 588 588 0 0 0 39 52c13 14 43 36 21 57-23 21-42-12-57-27a514 514 0 0 1-77-121c-10-25-24-61-29-88-7-30 38-41 46-11z m101-405c-43 47-75 109-95 169a502 502 0 0 0-18 96l-1 32c1 19 4 45-22 47-27 0-25-27-25-47 0-2 1-35 1-37a510 510 0 0 1 45-170c19-41 48-86 78-120 20-24 57 6 37 30z m345-200c9 1 39 2 47 3 31 4 25 51-6 47-44-5-95-2-139 7-62 12-125 41-176 78-33 33-69-14-29-37a583 583 0 0 1 126-68 547 547 0 0 1 177-30z m389 280a472 472 0 0 0-119-139 537 537 0 0 0-83-51 565 565 0 0 0-61-23c-29-10-14-54 15-44a596 596 0 0 1 67 25 527 527 0 0 1 143 103 546 546 0 0 1 79 105c16 27-25 51-41 24z m-554 254a127 127 0 0 1 27 2 74 74 0 0 1 24 8 47 47 0 0 1 17 16 49 49 0 0 1 6 26 44 44 0 0 1-14 35q-15 13-38 13a50 50 0 0 1-42-22 70 70 0 0 1-11-22 83 83 0 0 1-3-25h-54a138 138 0 0 0 9 45 114 114 0 0 0 22 37 99 99 0 0 0 34 23 115 115 0 0 0 46 9 133 133 0 0 0 39-5 113 113 0 0 0 34-17 81 81 0 0 0 33-67 84 84 0 0 0-12-45q-11-19-35-27v-1a69 69 0 0 0 44-29q16-22 16-55a94 94 0 0 0-9-43 98 98 0 0 0-26-32 120 120 0 0 0-38-20 153 153 0 0 0-97 1 98 98 0 0 0-36 24 103 103 0 0 0-22 37 151 151 0 0 0-8 48h54q-1-31 15-51t49-21a69 69 0 0 1 45 16q19 15 19 44 0 20-8 31a50 50 0 0 1-20 18 81 81 0 0 1-28 7 262 262 0 0 1-32 1z m291 145q35 0 58-16a114 114 0 0 0 36-42 189 189 0 0 0 17-57 389 389 0 0 0 0-119 189 189 0 0 0-17-56 114 114 0 0 0-36-42q-22-17-58-17t-59 17a114 114 0 0 0-36 42 189 189 0 0 0-17 56 392 392 0 0 0 0 119 189 189 0 0 0 17 57 114 114 0 0 0 36 42q23 16 59 16z m0-303a44 44 0 0 1 29 10 70 70 0 0 1 19 28 166 166 0 0 1 10 41 406 406 0 0 1 3 50 400 400 0 0 1-3 49 169 169 0 0 1-10 41 70 70 0 0 1-19 28 48 48 0 0 1-59 0 71 71 0 0 1-19-28 168 168 0 0 1-10-41 406 406 0 0 1-3-49 412 412 0 0 1 3-50 165 165 0 0 1 10-41 71 71 0 0 1 19-28 44 44 0 0 1 30-10z" horiz-adv-x="940" />

<glyph glyph-name="svg-video" unicode="&#xe816;" d="M1004 850a25 25 0 0 1-25-25v-27h-99v27a25 25 0 1 1-51 0v-100h-629v100a25 25 0 1 1-50 0v-27h-99v27a25 25 0 1 1-51 0v-950a25 25 0 1 1 51 0v34h99v-34a25 25 0 1 1 50 0v100h629v-100a25 25 0 1 1 51 0v34h99v-34a25 25 0 0 1 50 0v950a25 25 0 0 1-25 25z m-124-439h99v-117h-99z m0 51v117h99v-117z m0-218h99v-118h-99z m99 503v-117h-99v117z m-829-453h-99v117h99z m0 168h-99v117h99z m-99-218h99v-118h-99z m99 503v-117h-99v117z m-99-788v117h99v-117z m149 67v649h629v-649z m680-67v117h99v-117z m-261 441h0l-173 125a25 25 0 0 1-5 3 35 35 0 0 1-51-31h0v-251a35 35 0 0 1 19-31 37 37 0 0 1 16-4 36 36 0 0 1 19 6l1 1h0l174 125h0a35 35 0 0 1 13 29 33 33 0 0 1-13 28z m-179-124v191l132-95z" horiz-adv-x="1029" />

<glyph glyph-name="filedownload" unicode="&#xe817;" d="M711 537c-10 0-19 8-19 19v225c0 17-16 32-36 32h-427c-10 0-19 8-19 19s9 18 19 18h427c40 0 73-31 73-69v-225c0-11-8-19-18-19z m-304-578h-333c-41 0-74 31-74 70v592c0 10 8 19 19 19s18-9 18-19v-592c0-18 17-33 37-33h333c10 0 19-8 19-18s-9-19-19-19z m-233 644h-155c-8 0-15 4-18 11-2 7-1 15 4 20l211 211c5 5 13 7 20 4 7-3 11-10 11-17v-160c0-38-33-69-73-69z m-111 37h111c20 0 36 14 36 32v115l-147-147z m550-790c-15 0-29 6-39 18l-90 98c-15 16-38 42-52 57l-92 98c-17 18-13 34-11 39 3 6 11 20 37 20l100-1c11 0 20 9 20 20v234c0 31 25 57 57 57h141c31 0 57-26 57-57v-234c0-5 2-10 6-14 3-3 8-6 14-6l100 1c25 0 34-14 36-20 3-5 7-21-11-39l-91-99c-14-15-38-40-52-56l-90-98c-11-12-25-18-40-18z m-243 293l89-95c14-15 37-41 52-57l90-98c7-8 18-8 24 0l90 98c15 16 38 41 53 57l88 95-95-1c-15 0-30 6-41 17-10 11-16 25-16 40v234c0 11-9 20-20 20h-141c-11 0-20-9-20-20v-234c0-31-26-57-57-57l-96 1z" horiz-adv-x="899" />

<glyph glyph-name="cash2" unicode="&#xe818;" d="M553 163a207 207 0 0 1-23 102 210 210 0 0 1-70 77h0a472 472 0 0 1-210 72 98 98 0 0 0-56 22 42 42 0 0 0-14 31 41 41 0 0 0 13 26 93 93 0 0 0 31 19 153 153 0 0 0 64 12c33-2 71-16 79-46v0a4 4 0 0 1 0-1 2 2 0 0 1 0-1s0-1 0-2l0 0a14 14 0 0 0 1-2h0l2-1 0 0 1-1 0 0 1-1 0 0 1-1 1 0 1-1 0 0 2-1h0l2-1h1l1 0h1l2 0h7l1 0h0l125 29h0l1 0 1 0 0 0h0l2 1 1 0 1 1 1 0 1 0 1 1 0 1 1 1 0 1 1 1 0 0 1 1a4 4 0 0 0 0 1l0 1a4 4 0 0 0 0 2l0 1 0 1 0 1a4 4 0 0 0 0 1s0 1 0 1 0 1 0 2a3 3 0 0 1 0 1s0 0 0 1v2s0 1 0 2a3 3 0 0 1 0 1 5 5 0 0 1 0 1v0s0 0 0 0l0 1 0 2s0 0 0 0a289 289 0 0 1-168 166v84s0 1 0 1 0 0 0 1l0 2s0 0 0 1l-1 2s0 0 0 0a12 12 0 0 1-1 1v0l-1 3h0a26 26 0 0 1-11 9h0l-2 0h0l-2 0h0l-2 0h-134l-1 0-1 0-2 0-1 0-1 0-1 0-1 0-1-2-1 0-1 0-1 0-1-1-1 0-1-1 0-1 0-1-1-1a4 4 0 0 1 0-1l-1-1 0-1 0-1 0-2 0-1s0 0 0-1 0-1 0-1a4 4 0 0 1 0-1s0-1 0-1v-3h0l0-80c-8-2-14-5-22-7h0a264 264 0 0 1-130-107 217 217 0 0 1-32-167v0a217 217 0 0 1 46-88 213 213 0 0 1 82-58h0a1647 1647 0 0 1 188-56h0c29-6 49-17 55-31a26 26 0 0 0-2-22 59 59 0 0 0-22-21 156 156 0 0 0-128-10 60 60 0 0 0-35 35l0 0a5 5 0 0 1-1 1l0 1-1 2 0 1-1 1 0 1-1 0-1 1s0 0-1 0l-1 1-1 0-1 0-1 0-1 0a3 3 0 0 1-1 0l-1 0-1 0-1 0-2 0h-9l-135-19h0l-2 0-1 0-1 0-1 0 0 0h0l-2 0 0 0-2-1-1 0 0-1-1-1-3-5-1 0 0 0-1-1a3 3 0 0 0 0-1l0-1 0-1a4 4 0 0 1 0-1 5 5 0 0 0 0-2 2 2 0 0 0 0-1l0-1a2 2 0 0 0 0-1 4 4 0 0 0 0-1 3 3 0 0 0 0-1 4 4 0 0 0 0-2v-3a2 2 0 0 1 0-1s0-1 0-2v0s0 0 0-1 0 0 0-1l0-1s0 0 0 0a13 13 0 0 1 1-3 326 326 0 0 1 172-164l0-78h0v-2s0 0 0-1a4 4 0 0 1 0-1s0 0 0-2 0 0 0-1l0-1 0-1a4 4 0 0 1 0-1l0-1 1-1 0-1 1-1 0-1 1-1 0-1 1-1 1 0 1-1 1 0 1 0 1 0 1 0 1 0 1 0 2 0 1 0 1 0h130a25 25 0 0 1 18 8 24 24 0 0 1 7 17v75a302 302 0 0 1 89 41h0a217 217 0 0 1 107 166z m-317-263l0 70v0h0v0s0 2 0 2 0 0 0 1 0 1 0 2a4 4 0 0 0 0 1 3 3 0 0 0 0 1 4 4 0 0 1 0 2 2 2 0 0 1 0 0 10 10 0 0 1 0 2l0 0 0 1 0 1-1 1-4 3 0 0-1 2-1 0-1 1 0 0-1 0-1 0-1 0-1 1-1 0-2 1h-1a280 280 0 0 0-148 116l82 14a107 107 0 0 1 53-43 195 195 0 0 1 70-13 206 206 0 0 1 101 26 107 107 0 0 1 42 40 75 75 0 0 1 5 66c-13 29-44 50-90 60a1610 1610 0 0 0-183 55 165 165 0 0 0-97 111c-21 88 32 177 127 213h0a245 245 0 0 0 35 11h0l2 0 1 0 1 0 1 0 1 0 1 1 1 0 1 0 1 1 1 1a2 2 0 0 0 1 1l1 1 1 1 0 1 1 1 0 0 0 2 0 1a5 5 0 0 1 0 1l0 1 0 1a28477725200762 28477725200762 0 0 0 0 3s0 0 0 1 0 0 0 1v2a6 6 0 0 1 0 0l0 74h74v-76s0-1 0-1a3 3 0 0 1 0-1 6 6 0 0 1 0-2 3 3 0 0 1 0-1 3 3 0 0 1 0-1 4 4 0 0 1 0-1l0-1a5 5 0 0 1 0-1l0-1 0-2 0 0 1-2 1 0 1-1 0-1 1 0a7 7 0 0 1 1-1l1 0 1-1 1 0 1-1 1 0 1 0 1 0 1 0 2 0h0a239 239 0 0 0 150-116l-74-17c-24 41-75 58-115 60a200 200 0 0 1-85-16 139 139 0 0 1-48-30 90 90 0 0 1-27-58 91 91 0 0 1 30-71 146 146 0 0 1 93-36h0a419 419 0 0 0 188-64 157 157 0 0 0 71-135 167 167 0 0 0-81-132h0a253 253 0 0 0-91-38h0l-2 0h0l-2 0h-1l-1 0-1 0 0 0a3 3 0 0 1-1-1h0a21 21 0 0 1-6-4l-1-2 0 0-1-2h0l-1-2v0a14 14 0 0 0 0-1s0 0 0-1a9 9 0 0 0 0-1 6 6 0 0 1 0-1 1 1 0 0 1 0-1 7 7 0 0 1 0-2v0a10 10 0 0 1 0-2h0v-70z m343 451a25 25 0 0 1 10-34 448 448 0 0 1 219-54 521 521 0 0 1 92 8 370 370 0 0 1 122 40 161 161 0 0 1 49 42 119 119 0 0 1 23 65 25 25 0 0 1-50 2 68 68 0 0 0-13-37 112 112 0 0 0-34-28 327 327 0 0 0-106-35 419 419 0 0 0-277 41 25 25 0 0 1-35-10z m493-44a25 25 0 0 1-27-23 64 64 0 0 0-6-22c-16-36-61-61-138-77a452 452 0 0 0-213 7 406 406 0 0 0-45 17l-17 6a25 25 0 0 1-18-47c5-2 11-4 16-6a461 461 0 0 1 51-19 483 483 0 0 1 131-18 527 527 0 0 1 105 10c60 13 143 37 174 106a116 116 0 0 1 10 38 25 25 0 0 1-23 28z m-489-260a271 271 0 0 1 105-45 562 562 0 0 1 122-13 503 503 0 0 1 122 14c70 18 117 45 144 83a108 108 0 0 1 19 58 25 25 0 1 1-50 0 58 58 0 0 0-11-30c-19-28-56-48-114-63a485 485 0 0 0-221 0 223 223 0 0 0-87 36 25 25 0 0 1-30-40z m2 547a276 276 0 0 1 88-38 520 520 0 0 1 136-18 521 521 0 0 1 99 9 331 331 0 0 1 124 48c40 27 62 61 62 97s-24 75-67 102a364 364 0 0 1-146 51 506 506 0 0 1-188-8c-48-11-116-33-151-86a100 100 0 0 1-19-58c0-49 39-83 62-99z m-3 129c26 39 82 56 122 66a424 424 0 0 0 98 11 516 516 0 0 0 71-5 315 315 0 0 0 127-43c13-8 44-31 43-59s-27-48-39-56a282 282 0 0 0-106-40 471 471 0 0 0-212 8 232 232 0 0 0-73 31c-12 9-40 31-41 58v0a51 51 0 0 0 10 29z m26-280a396 396 0 0 1 155-43c12-1 25-2 38-2a534 534 0 0 1 120 15c43 10 98 27 138 67a116 116 0 0 1 35 77 25 25 0 0 1-25 25h0a25 25 0 0 1-25-26 68 68 0 0 0-21-41c-31-31-77-45-114-53-101-24-202-15-277 26a25 25 0 0 1-24-45z m464-411a25 25 0 0 1-27-22c-6-54-79-82-110-91a432 432 0 0 0-299 17c-35 16-56 36-62 59a25 25 0 1 1-49-12c10-38 40-70 91-93a464 464 0 0 1 191-40 494 494 0 0 1 142 21c51 15 137 53 146 133a25 25 0 0 1-23 28z" horiz-adv-x="1095" />

<glyph glyph-name="play-1" unicode="&#xe819;" d="M772 333l-741-412q-13-7-22-2t-9 20v822q0 14 9 20t22-2l741-412q13-7 13-17t-13-17z" horiz-adv-x="785.7" />

<glyph glyph-name="play" unicode="&#xe81a;" d="M0 850l826-514-826-486v1000z" horiz-adv-x="826" />

<glyph glyph-name="layers" unicode="&#xe81b;" d="M534 850l-534-304 159-96-159-91 159-96-159-90 534-323 551 323-163 90 164 96-164 91 164 96z m482-678l-482-282-466 282 124 71 342-207 353 207z m0 186l-482-282-466 282 124 71 342-206 353 207z m-482-95l-466 282 466 266 482-266z" horiz-adv-x="1085" />

<glyph glyph-name="pause" unicode="&#xe81c;" d="M0-150v1000h283v-1000h-283z m542 0v1000h284v-1000h-284z" horiz-adv-x="826" />

<glyph glyph-name="download" unicode="&#xe81f;" d="M663 418l0 0a33 33 0 0 1-47 0l-83-83v308a33 33 0 0 1-33 33h-1a33 33 0 0 1-33-33v-309l-85 85a33 33 0 0 1-46 0l0-1a33 33 0 0 1 0-46l141-142a33 33 0 0 1 46 0l141 142a33 33 0 0 1 0 46z m-163 432a500 500 0 1 1 500-500 500 500 0 0 1-500 500z m307-807a431 431 0 1 0 93 138 431 431 0 0 0-93-138z m-147 71h-321v34a33 33 0 0 1-33 33h-2a33 33 0 0 1-32-33v-68a33 33 0 0 1 32-33h390a33 33 0 0 1 33 33v68a33 33 0 0 1-33 33h-2a33 33 0 0 1-32-33z" horiz-adv-x="1000" />

<glyph glyph-name="radio2" unicode="&#xe820;" d="M1069 256l-1 75v0l-3 74v1l-4 74h0a124 124 0 0 1-112 115h0l-24 2-705 252a25 25 0 0 1-16-47l537-191-41 2h0l-82 2h0l-83 0h0l-83-1h0l-83-3h0l-82-4h-1l-82-6h0l-82-8h0a125 125 0 0 1-114-115h0l-4-74v0l-3-75v0l-1-75v0l1-75v0l2-74v-1l5-73h0a125 125 0 0 1 124-117h4a85 85 0 0 1 37-51 85 85 0 0 1 88 0 85 85 0 0 1 37 51h472a85 85 0 0 1 37-51 84 84 0 0 1 126 51h4a125 125 0 0 1 124 117h0v0l5 74v0l2 74v0l1 75z m-834-351a34 34 0 0 0-36 0 32 32 0 0 0-10 10h56a36 36 0 0 0-10-10z m634 0a34 34 0 0 0-46 10h57a32 32 0 0 0-11-10z m68 59h-805a75 75 0 0 0-75 70l-4 73-3 74 0 73 0 74 3 73 5 73a75 75 0 0 0 67 70l81 8 82 6 82 4 82 3 82 1 82 0 82-2 82-4 82-6 55-5h1l26-2a75 75 0 0 0 68-69l4-74 3-73 0-76 0-74-2-73-5-74a75 75 0 0 0-75-70z m-654 383a14 14 0 0 1 0-3l1-7a7 7 0 0 1 0-2l2-7a14 14 0 0 1 0-2l2-8a7 7 0 0 1 1-2l3-7 0-1 3-8a13 13 0 0 1 2-2l4-7a3 3 0 0 1 0-1l5-6a9 9 0 0 1 1-3l6-7 0 0 6-6 2-2 14-13 1-1 8-6 1-1 8-5 1 0 8-5a24 24 0 0 1 7-4l14-7 2-1 10-5 1 0 10-4h0l11-3 1 0 11-4 2 0 11-3h0l2 0a19 19 0 0 1 5-1l5-1h0l12-2h1l12-2 1 0 25-3h1l25 0h1l28-3h1l25 2 1 0 12 2h1l12 3h1l5 1a14 14 0 0 1 4 1l2 0h0l12 2 1 0 11 4 1 0 11 4h0l10 4 1 0 10 4 2 1 10 5 0 0 5 6a28 28 0 0 1 6 3l8 5 1 0 8 6 1 0 8 6 1 1 7 6 1 1 7 6 1 1 6 7a9 9 0 0 1 2 2l5 7 1 1 5 7 0 1 4 7 1 1 4 8a13 13 0 0 1 1 1l3 8 0 2 3 7a14 14 0 0 1 0 3l1 7 0 3 1 7a4 4 0 0 0 0 2l0 7v2l0 8s0 1 0 1l1 8 0 2-2 7c0 1 0 2 0 3l-2 7a14 14 0 0 1-1 3l-3 7-1 2-4 7-1 1-4 7 0 1-6 7-1 2-5 7a7 7 0 0 1-2 1l-6 7-1 1-6 6-1 1-8 6-1 1-7 6 0 0-9 6-1 1-9 5-1 0-8 5-2 1-10 5-1 0-10 4h0l-10 4-2 1-21 7-1 0-12 3-1 0-12 2h0l-12 2h-1l-12 2-1 0-24 3h-1l-12 0h-29l-13 0h-1l-24-3h-1l-12-1-2 0-11-3h0l-12-2h0l-11-3-1 0-12-3-1 0-11-4-1 0-10-4h0l-11-4-1 0-10-5 0 0-10-5-1 0-9-5-1-1-8-6 0 0-8-6-1-1-14-13-2-2-6-7 0 0-6-7-2-2-4-7 0-1-5-7a10 10 0 0 1-1-2l-3-7-1-2-3-7 0 0-2-8c0-1 0-2-1-2l-2-8 0-1-1-8a18 18 0 0 1 0-2l0-8v-3z m433 57l4-5 4-6 4-5 3-6 2-5 2-5 1-5 0-6 0-5 0-6 0-6-1-5-2-5-2-5-3-6-4-6-4-5-4-6-2-2v103z m-64 44l10-4 2-2v-174l-3-1-8-4-10-3-4-2v194l4-2z m-71 18l9-1v-220l-9-1-21-2v226z m-92 0l21 2v-226l-21 2-9 1v220z m-72-19l10 4 4 2v-195l-5 2-10 3-8 4-3 1v174l2 1z m-84-87l0 5 2 5 2 6 2 6 2 5 4 6 3 5 5 6 2 3v-103l-2 2-5 6-3 5-3 6-3 5-3 6-1 5-2 5 0 6 0 5z m423-227h-449a50 50 0 0 1-49-49v-51a50 50 0 0 1 49-49h449a50 50 0 0 1 50 49v51h0a50 50 0 0 1-50 49z m-332-99v16a25 25 0 1 1-50 0v-16h-66v49h448v-49h-332z m-267 155a85 85 0 1 1 84-85 85 85 0 0 1-84 85z m0-120a35 35 0 1 0 35 35 35 35 0 0 0-35-35z m755 120a85 85 0 1 1 85-85 85 85 0 0 1-85 85z m0-120a35 35 0 1 0 35 35 35 35 0 0 0-35-35z" horiz-adv-x="1069" />

<glyph glyph-name="micro" unicode="&#xe821;" d="M606 409c-5 0-10 0-15 0a230 230 0 0 0-141 69c-87 87-94 208-15 286l30 31a181 181 0 0 0 145 55 229 229 0 0 0 141-70c87-88 93-208 15-286l-30-30a182 182 0 0 0-130-55z m-10 399a139 139 0 0 1-100-43l-31-30c-61-62-56-155 15-225a189 189 0 0 1 116-59 138 138 0 0 1 111 43l30 30c62 62 55 155-15 226a189 189 0 0 1-116 58z m104-348c-49 0-114 34-175 94a363 363 0 0 0-83 121c-17 45-14 82 8 105l30-30c-9-10-8-32 2-60a322 322 0 0 1 73-106c74-74 147-93 166-74l30-30a70 70 0 0 0-51-20z m-555-379a52 52 0 0 0-37 15l-55 54a60 60 0 0 0 3 83l277 285v28l50 80 36-23-45-70v-33l-288-297a18 18 0 0 1-4-24l56-52c4-4 15-3 24 5l310 277h32l69 43 21-36-79-49h-26l-298-267a67 67 0 0 0-46-19z m21-231a133 133 0 0 0-95 40l-32 32a134 134 0 0 0 0 189l38 37 29-30-37-37a92 92 0 0 1 0-130l32-32a92 92 0 0 1 130 0l255 256a134 134 0 0 0 190-190l-70-69-30 30 70 69a92 92 0 0 1-130 130l-255-256a133 133 0 0 0-95-39z" horiz-adv-x="821" />

<glyph glyph-name="cash" unicode="&#xe822;" d="M580 366a451 451 0 0 1-68 12 279 279 0 0 0-80 18c-14 6-47 24-50 57a58 58 0 0 0 24 56c39 30 112 31 153 15 14-6 60-27 59-65a27 27 0 1 1 54-2c2 50-33 94-92 117a195 195 0 0 1-54 13v86a27 27 0 1 1-54 0v-86a199 199 0 0 1-99-35 112 112 0 0 1-46-105c4-43 34-80 82-102a329 329 0 0 1 96-21 402 402 0 0 0 60-10c27-8 60-30 66-60 8-40-23-60-42-69a222 222 0 0 0-102-17 169 169 0 0 0-92 29 65 65 0 0 0-26 37 78 78 0 0 0-1 13 27 27 0 1 1-55 0 124 124 0 0 1 2-23 114 114 0 0 1 48-71 214 214 0 0 1 109-39v-87a27 27 0 0 1 55 0v87a255 255 0 0 1 84 21c57 25 84 75 73 129s-60 89-104 102z m-80-516a500 500 0 1 0 500 500 501 501 0 0 0-500-500z m0 940a440 440 0 1 1 440-440 440 440 0 0 1-440 440z" horiz-adv-x="1000" />

<glyph glyph-name="dj" unicode="&#xe823;" d="M833 204h-41v250a21 21 0 0 1-42 0v-250h-42v250a63 63 0 0 0 125 0z m146-354h-41v21a19 19 0 0 0 1 7 290 290 0 0 1 19 76v370a21 21 0 0 1-8 18l-57 8a21 21 0 0 0-18 21v30a22 22 0 0 1-17 21l-50 11 5 20v22a29 29 0 0 0 6 0l50-13a64 64 0 0 0 48-61v-12l43-7a21 21 0 0 0 7-2 63 63 0 0 0 33-56v-370a307 307 0 0 0-21-87z m-291 0h-42v21c0 1-3 13-36 48a103 103 0 0 1-13 12 116 116 0 0 0-32 33c-7 13-26 51-46 93-15 31-31 62-37 75-19 34-21 68-5 91a57 57 0 0 0 57 22c26-4 50-23 70-57a122 122 0 0 1 21-27v252a63 63 0 0 0 62 62h42v-42h-41a21 21 0 0 1-21-20v-292a21 21 0 0 0-30-19 165 165 0 0 0-69 65c-13 22-26 35-39 37a18 18 0 0 1-18-5c-5-7-5-24 7-47 7-13 23-44 39-77 17-36 38-78 44-89a75 75 0 0 1 21-22 162 162 0 0 0 18-16c33-36 48-59 48-77z m-271 167a417 417 0 1 0 402 526l-40-11a375 375 0 1 1-362-474 398 398 0 0 1 59 5l7-42a409 409 0 0 0-66-4z m0 250a167 167 0 1 0 166 166 167 167 0 0 0-166-166z m0 291a125 125 0 1 1 125-125 125 125 0 0 1-125 125z m-199-62l-39 13a252 252 0 0 0 148 158l15-39a211 211 0 0 1-124-132z m-79 26l-40 13a337 337 0 0 0 198 210l16-39a295 295 0 0 1-174-184z" horiz-adv-x="1000" />

<glyph glyph-name="audiostream" unicode="&#xe824;" d="M838 848l-493-130c-29-8-49-34-49-64v-508h-82c-82 0-148-66-148-148s66-148 148-148h33c76 0 138 57 146 131h2v494l427 131v-328h-82c-82 0-148-67-148-148s66-149 148-149h33c82 0 148 67 148 149v654c0 43-41 75-83 64z m231-340h98c28 0 50 22 50 49s-22 49-50 49h-98c-28 0-50-22-50-49s22-49 50-49z m-921-99h-99c-27 0-49-22-49-49s22-50 49-50h99c27 0 49 22 49 50s-22 49-49 49z m1019 0h-98c-28 0-50-22-50-49s22-50 50-50h98c28 0 50 22 50 50s-22 49-50 49z m-1019 197h-99c-27 0-49-22-49-49s22-49 49-49h99c27 0 49 22 49 49s-22 49-49 49z" horiz-adv-x="1217" />

<glyph glyph-name="musiccreation" unicode="&#xe825;" d="M760-99a101 101 0 0 0-64 21 80 80 0 0 0-29 63c0 53 48 105 110 118a108 108 0 0 0 91-18 79 79 0 0 0 29-62c0-54-48-106-110-119a131 131 0 0 0-27-3z m44 154a77 77 0 0 1-17-2c-37-8-69-39-69-68a28 28 0 0 1 11-23 58 58 0 0 1 48-8c37 8 69 40 69 69a28 28 0 0 1-10 23 51 51 0 0 1-32 9z m93-25h-51v487a26 26 0 0 0 49 10 139 139 0 0 1 63-71c40-26 68-52 68-141h-52c0 69-15 79-44 98a251 251 0 0 0-33 23z m-727 51a101 101 0 0 0-64 21 80 80 0 0 0-29 62c0 54 48 106 110 119a107 107 0 0 0 91-18 79 79 0 0 0 30-63c0-53-49-105-110-118a131 131 0 0 0-28-3z m45 154a77 77 0 0 1-17-2c-38-8-70-40-70-69a28 28 0 0 1 11-22 58 58 0 0 1 48-8c38 8 69 39 69 68a28 28 0 0 1-10 23 51 51 0 0 1-31 10z m314-26a101 101 0 0 0-64 21 80 80 0 0 0-29 63c0 53 48 105 110 118a109 109 0 0 0 91-18 80 80 0 0 0 30-62c0-54-49-106-110-119a131 131 0 0 0-28-3z m45 154a77 77 0 0 1-17-2c-38-8-70-39-70-68a28 28 0 0 1 11-23 58 58 0 0 1 48-8c38 8 69 40 69 69a28 28 0 0 1-10 22 51 51 0 0 1-31 10z m-266-154h-52v487a26 26 0 0 0 17 24l359 129a26 26 0 0 0 24-4 26 26 0 0 0 11-21v-487h-52v451l-307-110z" horiz-adv-x="1154" />

<glyph glyph-name="mute" unicode="&#xe826;" d="M532-14c0-13-5-27-14-36-9-9-22-14-36-14-14 0-27 5-36 14l-187 186h-209c-14 0-27 5-36 14-9 9-14 23-14 36v300c0 14 5 28 14 37 9 9 22 13 36 13h214l186 187c9 9 23 13 36 13 14 0 28-4 37-13 9-9 13-23 13-37v-700z m250 355l77-77c5-5 5-9 5-18 0-5 0-14-5-19l-18-13c-5-5-9-5-18-5-5 0-14 0-18 5l-78 77-72-77c-5-5-9-5-19-5-4 0-13 0-18 5l-18 18c-4 4-4 9-4 18 0 5 0 14 4 18l77 78-77 77c-4 4-4 9-4 18 0 5 0 14 4 18l18 18c5 5 9 5 18 5 5 0 14 0 19-5l77-77 77 77c5 5 9 5 18 5 5 0 14 0 19-5l18-18c-5-13 0-23 0-27 0-5 0-14-5-18l-77-73z" horiz-adv-x="1000" />

<glyph glyph-name="nocash" unicode="&#xe827;" d="M580 366a451 451 0 0 1-68 12 284 284 0 0 0-80 18c-14 6-47 24-50 57a58 58 0 0 0 24 56c39 30 112 32 154 15 13-6 60-27 58-65a27 27 0 1 1 54-2c2 50-33 93-92 117a195 195 0 0 1-54 12v87a27 27 0 0 1-54 0v-86a199 199 0 0 1-99-35 112 112 0 0 1-46-105c4-43 34-80 82-102a329 329 0 0 1 96-21 402 402 0 0 0 60-10c27-8 60-30 66-60 8-40-23-60-42-69a222 222 0 0 0-102-17 169 169 0 0 0-92 29 66 66 0 0 0-26 37 78 78 0 0 0-1 13 27 27 0 1 1-55 0 124 124 0 0 1 2-23 114 114 0 0 1 48-71 214 214 0 0 1 109-39v-87a27 27 0 0 1 55 0v87a255 255 0 0 1 84 21c57 25 84 75 73 129s-60 89-104 102z m-80 484a500 500 0 1 1 500-500 501 501 0 0 1-500 500z m0-940a440 440 0 0 0-305 756l134-133 42 42-131 130a440 440 0 0 0 615-614l-130 129-42-42 133-133a439 439 0 0 0-316-135z" horiz-adv-x="1000" />

<glyph glyph-name="close-circle" unicode="&#xe828;" d="M500 850c-276 0-500-224-500-500s224-500 500-500 500 224 500 500-224 500-500 500z m0-929c-236 0-429 193-429 429s193 429 429 429 429-193 429-429-193-429-429-429z m153 582c-14 14-36 14-50 0l-103-102-103 102c-14 14-36 14-50 0-14-14-14-36 0-50l103-103-103-103c-14-14-14-36 0-50 7-7 16-11 25-11s18 4 25 11l103 103 103-103c7-7 16-11 25-11s18 4 25 11c14 14 14 36 0 50l-102 103 102 103c14 14 14 36 0 50z" horiz-adv-x="1000" />

<glyph glyph-name="forward" unicode="&#xe829;" d="M0 850l0-1005 755 470v-470h120v1005l-120 0v-455l-755 455" horiz-adv-x="875" />

<glyph glyph-name="back" unicode="&#xe82a;" d="M875 850l-755-455v455h-120v-1005h120v470l755-470v1005" horiz-adv-x="875" />

<glyph glyph-name="volume" unicode="&#xe82e;" d="M532-14c0-13-5-27-14-36-9-9-22-14-36-14-14 0-27 5-36 14l-187 186h-209c-14 0-27 5-36 14-9 9-14 23-14 36v300c0 14 5 28 14 37 9 9 22 13 36 13h214l186 187c9 9 23 13 36 13 14 0 28-4 37-13 9-9 13-23 13-37v-700z m245 446c-18 32-41 54-72 73-14 9-32 13-50 9-19-5-32-14-41-28-9-18-14-31-9-50 4-18 13-31 31-40 23-14 32-32 32-55 0-23-9-41-27-55-14-9-23-27-27-45s0-36 13-50c9-14 23-23 41-27 18-5 37 0 50 9 28 18 46 45 64 73 14 27 23 59 23 90-5 32-14 69-28 96z m173 100c-36 59-82 109-141 145-13 9-32 14-50 9-18-4-32-13-41-31-9-19-13-32-9-50 5-19 14-32 32-41 41-23 68-55 91-96 23-41 36-82 36-132 0-40-9-81-32-122-18-41-50-73-86-96-14-9-23-27-27-45-5-18 0-37 13-50 14-18 32-28 55-28 14 0 27 5 36 14 55 37 96 87 128 146 31 59 45 118 45 186 0 64-18 132-50 191z" horiz-adv-x="1000" />

<glyph glyph-name="list" unicode="&#xe833;" d="M150 850h1200v-100h-1200v100z m0-300h1200v-100h-1200v100z m0-300h1200v-100h-1200v100z m0-300h750v-100h-750v100z" horiz-adv-x="1500" />

<glyph glyph-name="down-arrow" unicode="&#xe835;" d="M116 515a42 42 0 0 0 59 0l325-325 325 325a42 42 0 1 0 59-59l-384-384-384 384a42 42 0 0 0 0 59z" horiz-adv-x="1000" />

<glyph glyph-name="share" unicode="&#xe836;" d="M805 725a70 70 0 1 1 0-141 70 70 0 0 1 0 141z m-164-70a164 164 0 1 0 47-115l-329-190 329-190a164 164 0 1 0-44-82l-313 180a164 164 0 1 0 0 184l313 181a165 165 0 0 0-3 32z m-446-235a70 70 0 1 1 0-140 70 70 0 0 1 0 140z m610-304a70 70 0 1 1 0-141 70 70 0 0 1 0 141z" horiz-adv-x="1000" />

<glyph glyph-name="3-dots-h" unicode="&#xe837;" d="M188 288a63 63 0 1 1 0 125 63 63 0 0 1 0-125z m625 0a63 63 0 1 1 0 125 63 63 0 0 1 0-125z m-313 0a63 63 0 1 1 0 125 63 63 0 0 1 0-125z" horiz-adv-x="1000" />

<glyph glyph-name="close" unicode="&#xe838;" d="M154 696a47 47 0 0 0 67 0l279-280 279 280a47 47 0 1 0 67-67l-280-279 280-279a47 47 0 1 0-67-67l-279 280-279-280a47 47 0 0 0-67 67l280 279-280 279a47 47 0 0 0 0 67z" horiz-adv-x="1000" />

<glyph glyph-name="3-dots-v" unicode="&#xe839;" d="M563 38c0 33-30 62-63 62s-62-29-62-62c0-34 29-63 62-63s63 29 63 63z m0 625c0 33-30 62-63 62s-62-29-62-62 29-63 62-63 63 29 63 63z m0-313c0 33-30 63-63 63s-62-30-62-63 29-62 62-62 63 29 63 62z" horiz-adv-x="1000" />

<glyph glyph-name="up-arrow" unicode="&#xe83a;" d="M883 83c-16-16-41-16-58 0l-325 325-325-325c-17-16-42-16-58 0-17 17-17 42 0 59 0 0 0 0 0 0l383 387 383-383c17-17 17-46 0-63z" horiz-adv-x="1000" />

<glyph glyph-name="repeat" unicode="&#xe83b;" d="M0 553a234 234 0 0 0 234 235h532a234 234 0 0 0 234-235v-312a234 234 0 0 0-234-235h-153l64-63a47 47 0 1 0-66-67l-177 177 177 177a47 47 0 1 0 66-66l-64-64h153a141 141 0 0 1 140 141v312a141 141 0 0 1-140 141h-532a141 141 0 0 1-140-141v-312a141 141 0 0 1 140-141h79v-94h-79a234 234 0 0 0-234 235v312z" horiz-adv-x="1000" />

<glyph glyph-name="repeat-track" unicode="&#xe83c;" d="M0 553a234 234 0 0 0 234 235h47v-94h-47a141 141 0 0 1-140-141v-312a141 141 0 0 1 140-141h79v-94h-79a234 234 0 0 0-234 235v312z m766 141h-47v94h47a234 234 0 0 0 234-235v-312a234 234 0 0 0-234-235h-153l64-63a47 47 0 1 0-66-67l-177 177 177 177a47 47 0 1 0 66-66l-64-64h153a141 141 0 0 1 140 141v312a141 141 0 0 1-140 141z m-196-344v438h-83c-8-45-48-81-112-83v-65h98v-290h97z" horiz-adv-x="1000" />

<glyph glyph-name="shuffle" unicode="&#xe83d;" d="M822 792a47 47 0 1 1-66-66l63-63h-121a234 234 0 0 1-180-84l-386-460a141 141 0 0 0-108-50h-24v-94h24a234 234 0 0 1 180 84l386 460a141 141 0 0 0 108 50h121l-63-64a47 47 0 0 1 66-66l177 177-177 176z m-798-161h-24v94h24c70 0 135-31 180-84l102-121-62-73-112 134a141 141 0 0 1-108 50z m445-451l61 73 60-71a141 141 0 0 1 108-51h121l-63 64a47 47 0 1 0 66 66l177-177-177-176a47 47 0 1 0-66 66l63 64h-121a234 234 0 0 0-180 83l-49 59z" horiz-adv-x="1000" />

<glyph glyph-name="shuffle-off" unicode="&#xe83e;" d="M0 569h819l-63-63c-18-18-18-50 0-68 19-19 44-19 63 0l175 175-175 175h0c-19 18-50 18-69 0-19-19-19-50 0-69 0 0 0 0 0 0l63-63h-813v-93z m1000-438h-819l63 63c19 19 19 50 0 69-19 18-44 18-63 0l-181-175 175-176h0c19-18 50-18 69 0 19 19 19 50 0 69 0 0 0 0 0 0l-63 63h819v94z" horiz-adv-x="1000" />

<glyph glyph-name="bookmark_add" unicode="&#xe863;" d="M590 850h-480c-60 0-110-50-110-110v-840c0-10 0-15 5-20 5-10 15-20 30-25 10-5 25-5 35 0l280 140 275-140c5-5 15-5 20-5 10 0 20 0 30 10 15 10 25 25 25 40v840c0 60-50 110-110 110z m60-950l-300 150-300-150v840c0 30 30 60 60 60h475c35 0 65-30 65-60l0-840z m-35 650l-135-130 30-180-160 85-165-85 30 180-130 130 185 25 80 170 80-165 185-30z" horiz-adv-x="700" />

<glyph glyph-name="bookmark_remove" unicode="&#xe864;" d="M590 850h-480c-60 0-110-50-110-110v-840c0-10 0-15 5-20 5-10 15-20 30-25 10-5 25-5 35 0l280 140 275-140c5-5 15-5 20-5 10 0 20 0 30 10 15 10 25 25 25 40v840c0 60-50 110-110 110z m-30-360h-420v105h420v-105z" horiz-adv-x="700" />

<glyph glyph-name="minus" unicode="&#xe865;" d="M500 850c-275 0-500-225-500-500s225-500 500-500 500 225 500 500-225 500-500 500z m150-550h-100-100-100c-30 0-50 20-50 50s20 50 50 50h100 100 100c30 0 50-20 50-50s-20-50-50-50z" horiz-adv-x="1000" />

<glyph glyph-name="plus" unicode="&#xe866;" d="M500 850c-275 0-500-225-500-500s225-500 500-500 500 225 500 500-225 500-500 500z m0-900c-220 0-400 180-400 400s180 400 400 400 400-180 400-400-180-400-400-400z m150 450h-100v100c0 30-20 50-50 50s-50-20-50-50v-100h-100c-30 0-50-20-50-50s20-50 50-50h100v-100c0-30 20-50 50-50s50 20 50 50v100h100c30 0 50 20 50 50s-20 50-50 50z" horiz-adv-x="1000" />

<glyph glyph-name="star_add" unicode="&#xe867;" d="M1048 466l-375 35-149 345-148-350-376-30 288-249-87-367 323 197 323-197-87 367 288 249z m-524-350l-227-135 61 258-201 174 262 22 105 240 105-244 262-22-201-175 61-257-227 139z" horiz-adv-x="1048" />

<glyph glyph-name="star_remove" unicode="&#xe868;" d="M1048 466l-375 35-149 345-148-350-376-30 288-249-87-367 323 197 323-197-87 367 288 249z" horiz-adv-x="1048" />

<glyph glyph-name="heart-fill" unicode="&#xe869;" d="M929 517q0 46-12 80t-31 55-46 33-52 18-55 4-62-14-62-36-48-40-34-34q-10-13-27-13t-27 13q-14 15-34 34t-48 40-62 36-62 14-55-4-52-18-46-33-31-55-12-80q0-93 105-198l324-312 324 312q105 105 105 198z m71 0q0-123-128-251l-347-335q-10-10-25-10t-25 10l-348 336q-5 5-15 15t-31 37-38 54-30 67-13 77q0 123 71 192t196 70q34 0 70-12t67-33 54-38 42-38q20 20 42 38t54 38 67 33 70 12q125 0 196-70t71-192z" horiz-adv-x="1000" />

<glyph glyph-name="heart" unicode="&#xe86a;" d="M500-79q-14 0-25 10l-348 336q-5 5-15 15t-31 37-38 54-30 67-13 77q0 123 71 192t196 70q34 0 70-12t67-33 54-38 42-38q20 20 42 38t54 38 67 33 70 12q125 0 196-70t71-192q0-123-128-251l-347-335q-10-10-25-10z" horiz-adv-x="1000" />

<glyph glyph-name="x-twitter" unicode="&#xe87b;" d="M760 756h138l-301-344 354-468h-277l-218 284-248-284h-138l322 368-340 444h285l196-259 227 259z m-48-730h76l-493 652h-82l499-652z" horiz-adv-x="1000" />

<glyph glyph-name="spinner" unicode="&#xe97b;" d="M1000 350c-1 65-15 130-42 190-26 60-63 113-110 158-46 45-101 80-161 103-60 24-124 35-187 33-63-1-126-15-184-40-58-25-110-62-153-107-43-45-77-98-100-156-22-58-33-120-32-181 2-61 15-122 39-178 25-56 61-106 104-148 44-42 95-75 151-96 56-22 116-33 175-31 59 1 118 14 172 38 54 24 103 58 143 100 40 42 72 92 93 146 13 33 21 67 26 101 1 0 2 0 4 0 34 0 62 28 62 63 0 2 0 3 0 5h0z m-99-166c-23-52-56-99-97-138-41-39-89-69-141-90-52-20-108-29-163-28-55 1-110 13-160 36-50 22-95 54-133 93-37 40-67 86-86 136-19 50-29 104-27 157 1 53 13 106 34 154 22 48 52 92 90 128 38 36 83 64 131 83 48 18 100 27 151 26 51-2 102-13 148-34 46-20 88-50 123-86 34-37 61-80 79-126 18-46 26-96 25-145h0c0-2 0-3 0-5 0-32 24-59 56-62-6-34-16-67-30-99z" horiz-adv-x="1000" />
</font>
</defs>
</svg>
